Zéro ~fansub~ :: db0 company Forum Index
Username:    Password:      Log me on automatically each visit          

   
It is currently Mon 22 Apr - 00:10 (2019) - créer un forum
 Zéro ~fansub~ :: db0 company Forum Index
View unanswered posts
Problème de convertion vidéo
Post new topic   Reply to topic    -Discussion-Libre-
Previous topic .::. Next topic  
Author Message
etienne2000
+


Joined: 07 Jan 2010
Posts: 272
O.S.: Windows: XP, Vista, Seven / Linux: Toutou Linux 4.3.1
Sexe: Masculin
Âge: 21
Engineering Section

PostPosted: Sat 16 Jan - 14:00 (2010)    Post subject: Problème de convertion vidéo Reply with quote

Voila, j'ai ressortit mon vieu jeu (Wors 2) et j'ai trouvé les vidéo en .avi mais quand je les lis, la qualitée est ... bizarre et si je la convertit, les couleurs devienne normales mais le son est décalé. je n'arrive pas a convertire le fichier sans decalage. voila le lien de la vidéo (non convertie):

http://www.megaupload.com/?d=YXIWIKHW

INFOMATION SUR LA VIDEO:

General
Complete name                    : H:\AUTORUN\VIDEO\ARMAG.AVI
Format                           : AVI
Format/Info                      : Audio Video Interleave
Format settings                  : rec
File size                        : 22.1 MiB
Duration                         : 1mn 17s
Overall bit rate                 : 2 395 Kbps

Video
Format                           : Karl
Codec ID                         : KMVC
Codec ID/Info                    : Karl Morton's Video (presumably)
Duration                         : 1mn 17s
Bit rate                         : 1 908 Kbps
Width                            : 320 pixels
Height                           : 200 pixels
Display aspect ratio             : 1.600
Frame rate                       : 25.000 fps
Bits/(Pixel*Frame)               : 1.193
Stream size                      : 17.6 MiB (80%)

Audio
Format                           : PCM
Format settings, Endianness      : Little
Format settings, Sign            : Unsigned
Codec ID                         : 1
Codec ID/Hint                    : Microsoft
Duration                         : 1mn 15s
Bit rate mode                    : Constant
Bit rate                         : 176.4 Kbps
Channel(s)                       : 1 channel
Sampling rate                    : 22.05 KHz
Resolution                       : 8 bits
Stream size                      : 1.58 MiB (7%)
Interleave, duration             : 41 ms (1.03 video frame)
Interleave, preload duration     : 999 ms



Si vous arrivez a la convertire sans décalage du son, cela serais super de me donner les reglage et le progarmme utilisé car la ca fait des heures que je passe a essayer de la convertire je n'arrive pas a la convertire sans décalage de son.

Sur ce, merci d'avance pour votre aide ou conseil pour cette vidéo
_________________


MON SERVEUR FTP:
Page d'accueil du serveur

Back to top
Visit poster’s website

Publicité






PostPosted: Sat 16 Jan - 14:00 (2010)    Post subject: Publicité

PublicitéSupprimer les publicités ?

Back to top

Display posts from previous:   
Post new topic   Reply to topic    -Discussion-Libre- All times are GMT + 1 Hour
Page 1 of 1

 
 

Index | Have own forum | Free support forum | Free forums directory | Report a violation | Conditions générales d'utilisation